太空交响之旅 Galaxymphony (Danish National Symphony Orchestra) (2019) 1080P蓝光原盘 [BDMV 21.6G]

太空交响之旅 Galaxymphony (Danish National Symphony Orchestra) (2019) 1080P蓝光原盘 [BDMV 21.6G]

太空交响之旅 Galaxymphony (Danish National Symphony Orchestra) (2019) 1080P蓝光原盘 [BDMV 21.6G]Blu-ray、古典音乐会、蓝光演唱会1
 
影片名称 : Danish National Symphony Orchestra, Anthony Hermus – Galaxymphony (2019)
文件体积 : 21.6G
封装格式 : 蓝光原盘 BDMV
音轨规格 : 英语 DTS-HDMA 5.1 英语 LPCM 2.0
 
 
Description :
 
A must-have for all sci-fi fans, available on Blu-ray & CD; CD includs Download Code for the full album + 3 bonus tracks. Featuring film music hits from multiple Oscar-winning movies.
Including film music tracks from Star Wars, Star Trek, Planet of the Apes, The Fifth Element, Interstellar, 2001 – A Space Odyseey, Blade Runner and Alien. Released just before the new Star Wars movie hits the cinemas (19 December 2019).
Concert orchestration is based on the original orchestration of the film soundtracks. Includes spectacular sound effects. Featuring David Bateson, the voice of Agent 47 from the Hitman series, in spoken word part. The series of concert releases with the Danish National Symphony Orchestra will be continued with fantasy and crime soundtracks including music from Game of Thrones.
 
Tracklist :
 
Also sprach Zarathustra! (2001: A Space Odyssey)
Avatar-Suite (Avatar)
Alien-Theme (Alien)
Blade Runner Suite (Blade Runner)
Interstellar Suite (Interstellar)
The Diva Dance (The 5th Element)
Star Trek-Medley (Music the Original TV-Series & The Next Generation)
No Escape (The Planet Of The Apes)
Star Wars – Main Theme (Star Wars Episode IV)
Anakin´s Theme & Love Theme (Star Wars Episode I & II)
Duel Of The Fates (Star Wars Episode I)
Luke And Leia Theme (Star Wars Episode VI)
The Imperial March (Star War Episode IV)
Yoda´s Theme (Star Wars Episode V)
Princess Leia´s Theme (Star Wars Episode IV)
Stars Wars – Finale and Throne Room (Star Wars IV)
Cantina Band (Star Wars Episode IV)
 
视频截图 :
 
太空交响之旅 Galaxymphony (Danish National Symphony Orchestra) (2019) 1080P蓝光原盘 [BDMV 21.6G]Blu-ray、古典音乐会、蓝光演唱会3 太空交响之旅 Galaxymphony (Danish National Symphony Orchestra) (2019) 1080P蓝光原盘 [BDMV 21.6G]Blu-ray、古典音乐会、蓝光演唱会5 太空交响之旅 Galaxymphony (Danish National Symphony Orchestra) (2019) 1080P蓝光原盘 [BDMV 21.6G]Blu-ray、古典音乐会、蓝光演唱会7 太空交响之旅 Galaxymphony (Danish National Symphony Orchestra) (2019) 1080P蓝光原盘 [BDMV 21.6G]Blu-ray、古典音乐会、蓝光演唱会9
 
分享到 :
相关推荐

发表回复

登录... 后才能评论

评论(1)

  • admin 永久VIP 2020年11月25日 下午9:40

    DISC INFO

    Disc Title: Galaxymphony
    Disc Label: Galaxymphony
    Disc Size: 22,538,681,954 bytes
    Protection: AACS
    BDInfo: 0.7.5.5

    PLAYLIST REPORT:

    Name: 00000.MPLS
    Length: 1:42:39.586 (h:m:s.ms)
    Size: 22,300,574,592 bytes
    Total Bitrate: 28.96 Mbps

    VIDEO:

    Codec Bitrate Description
    —– ——- ———–
    MPEG-4 AVC Video 20929 kbps 1080i / 29.970 fps / 16:9 / High Profile 4.1

    AUDIO:

    Codec Language Bitrate Description
    —– ——– ——- ———–
    LPCM Audio Undetermined 2304 kbps 2.0 / 48 kHz / 2304 kbps / 24-bit
    DTS-HD Master Audio Undetermined 4169 kbps 5.1 / 48 kHz / 4169 kbps / 24-bit (DTS Core: 5.1 / 48 kHz / 1509 kbps / 24-bit)

    FILES:

    Name Time In Length Size Total Bitrate
    —- ——- —— —- ————-
    00000.M2TS 0:00:00.000 1:42:31.211 22,298,467,200 29,000
    00008.M2TS 1:42:31.211 0:00:08.041 2,095,104 2,084
    00007.M2TS 1:42:39.253 0:00:00.333 12,288 295